#TITLE:She Bangs;
#SUBTITLE:;
#ARTIST:ricky Martin;
#TITLETRANSLIT:;
#SUBTITLETRANSLIT:;
#ARTISTTRANSLIT:;
#CREDIT:;
#BANNER:bn.png;
#BACKGROUND:bg.png;
#LYRICSPATH:;
#CDTITLE:cd.png;
#MUSIC:She Bangs.mp3;
#OFFSET:-0.020;
#SAMPLESTART:100.000;
#SAMPLELENGTH:12.000;
#SELECTABLE:YES;
#BPMS:0.000=143.900;
#STOPS:;
#BGCHANGES:;
// cache tags:
#FIRSTBEAT:6.000;
#LASTBEAT:400.000;
#SONGFILENAME:Songs/Super Dancer Online/She Bangs/she bangs.sm;
#HASMUSIC:1;
#HASBANNER:1;
#MUSICLENGTH:170.021;
// end cache tags

//---------------dance-single - Hener----------------
#NOTES:
     dance-single:
     Hener:
     Hard:
     15:
     1.000,1.000,1.000,0.000,0.371,893.000,434.000,0.000,0.000,55.000:
0000
0000
0000
0000
,
0000
0000
0000
0000
1110
0100
1010
0100
,
0110
0010
0101
0010
1100
0100
0101
0010
,
1100
0010
0101
0010
0110
0100
1010
0100
,
0011
0001
1010
0100
0011
0001
1010
0100
,
0110
1001
1001
1001
0110
0100
1010
0100
,
0011
0001
0101
0010
1100
0100
0101
0010
,
1100
0100
0101
0010
0110
0010
0101
0010
,
0011
0010
1010
0100
0110
0100
1010
0100
,
0011
0010
0101
0010
1100
0010
0101
0010
,
0011
0010
0101
1000
0110
0100
1010
0001
,
1100
0010
0001
0000
1010
0000
0100
0000
0011
0100
1000
0000
1010
0000
0100
0000
,
0011
0100
0010
1000
0101
0010
0100
1000
0011
1000
0100
0001
1010
0100
0010
1000
,
0011
0100
0010
1000
0101
0010
0100
0000
0111
0000
0000
0000
1010
0000
0000
0000
,
0111
0000
1010
0100
0011
0010
1010
0100
,
0101
0010
1010
0100
0011
0001
0101
0010
,
1100
0100
0101
0010
1100
0100
0101
0010
,
0011
0001
1010
0100
0110
0010
0101
0010
,
0111
0100
1010
0100
0011
0010
0101
0100
,
0011
0110
1100
0110
1001
0010
1001
0100
,
0011
0000
0010
0000
1100
0000
0100
0000
0110
0000
0001
0000
0100
0010
0100
0010
,
1100
0000
1110
0000
1100
0100
0101
0010
,
0011
0010
1010
0100
0011
0010
1010
0100
,
0110
0010
0101
0010
1100
0100
1010
0100
,
0011
0010
1010
0100
0110
0010
1010
0100
,
0110
0010
0101
0010
1100
0100
0101
0010
,
1100
0100
0101
0010
0110
0010
0101
0010
,
1100
0100
1010
0100
0011
0010
0101
0010
,
1100
0000
0100
0000
0101
0000
0010
0000
1000
0100
0010
0000
0101
0000
0110
0000
,
1010
0101
1010
0101
1100
0000
1010
0100
,
0110
0010
1010
0100
0011
0010
0101
0010
,
1100
0100
0101
0010
0011
0010
1010
0100
,
0011
0010
1010
0100
0110
0010
0101
0010
,
1100
0100
0101
0010
0110
0100
1010
0100
,
0011
0001
1010
0100
0110
0010
0101
0010
,
0110
0100
1010
0100
0011
0010
0101
0100
,
0011
0010
1010
0100
0110
0010
0101
1010
,
0101
0000
1100
0000
1110
0100
0101
0010
,
0011
0001
1010
0100
0110
0010
0101
0010
,
1100
0100
0101
0010
0110
0010
1010
0100
,
0011
0001
1010
0100
0110
0010
1010
0100
,
0011
0010
1010
0100
0110
0010
0101
0010
,
0011
0010
1010
0100
0110
0010
1010
0100
,
0011
0010
1010
0100
1110
0010
0100
0010
,
1110
0010
0100
0010
1110
0010
0100
0010
,
1110
0010
0100
0010
1110
0000
1010
0100
,
0011
0001
1010
0100
0110
0010
0101
0010
,
0110
0100
1010
0100
0011
0001
1010
0100
,
0011
0001
1010
0100
0110
0010
0101
0010
,
1100
0010
0101
0010
0011
0010
1010
0100
,
0011
0100
0101
0010
1100
0010
0101
0010
,
0011
0010
1010
0100
0011
0010
1010
0100
,
0011
0010
1100
0010
0111
0000
1110
0000
,
1001
1001
1001
1001
0110
0010
0101
0010
,
0110
0100
1010
0100
0110
0010
0101
0010
,
1100
0000
0010
0000
0110
0000
0100
0000
1000
0100
0010
0000
0011
0000
0101
0000
,
0001
0010
0100
0000
1100
0000
1010
0000
1000
0100
0010
0000
0011
0000
0101
0000
,
0010
0100
1000
0000
0011
0000
0101
0000
0010
0100
1000
0000
0011
0000
0101
0000
,
0001
0010
0100
0000
0110
0000
1010
0000
0001
0010
0100
0000
0110
0000
1010
0000
,
0111
0000
0000
0000
1110
0000
0000
0000
1000
0100
1000
0000
0011
0000
1010
0000
,
0001
0010
0001
0000
0110
0000
1010
0000
0001
0010
0001
0000
0110
0000
1010
0000
,
1000
0100
1000
0000
1100
0000
1010
0000
1000
0100
1000
0000
1100
0000
1010
0000
,
0001
0010
0100
0000
0011
0000
0101
0000
1000
0100
0010
0000
0110
0000
1010
0000
,
0001
0010
0100
0000
1001
0000
0000
0000
1001
0000
0010
0000
0101
0000
0010
0000
,
0110
0100
0101
0010
1100
0100
0101
0010
,
0011
0010
1010
0100
0110
0010
0101
0010
,
0011
0010
1010
0100
0011
0010
1010
0100
,
0110
0010
0101
0010
0110
0100
1010
0100
,
0011
0010
1010
0100
0110
0010
0101
0010
,
1100
0100
0101
0010
0111
0100
0010
0100
,
0111
0000
0000
0000
0111
0000
0000
0000
0111
0000
0000
0111
0000
0111
0000
0000
,
0111
0000
0000
0111
0000
0111
0000
0000
0010
0100
0010
0100
0010
0100
0010
0100
,
0010
0100
0010
0100
0010
0000
1001
0000
0000
0101
0000
0000
0011
0000
0000
1010
0000
0000
1010
0000
0000
0110
0000
0000
,
1100
0101
0110
1010
0101
0110
1100
0101
,
0011
1010
0101
0011
1100
0101
0101
1010
,
0011
0110
1010
0101
0110
1010
0101
1010
,
0011
0110
1010
0101
0110
1010
0101
0110
,
0011
0101
1010
0101
0110
1010
0101
0110
,
1100
0101
0101
0110
0011
0110
1010
0101
,
0110
1010
0101
0110
1100
0110
0101
1010
,
0110
0101
1100
0101
1110
0101
1110
0101
,
0111
1010
0111
0101
1110
0101
0111
1010
,
1110
0101
0111
1010
1110
1010
1101
0101
,
1110
0101
0111
1010
1110
0101
0111
0101
,
0111
1010
1110
0101
1011
1010
1101
1010
,
1110
0101
1110
0101
0111
1010
0110
0101
,
1110
0101
0111
1010
1110
0101
0111
1010
,
1101
1010
1110
0101
1110
0101
0111
1010
,
0111
0000
0100
0000
0010
0000
1110
0000
1010
0100
0010
0001
1010
0100
0010
0001
,
1010
0100
0010
0001
1010
0100
0010
0001
1010
0100
0010
0001
1010
0100
0010
0001
,
0101
0010
0100
1000
0101
0010
0100
1000
0101
0010
0100
1000
0101
0010
0100
1000
,
1010
0100
0010
0001
1010
0100
0010
0001
1010
0100
0010
0001
1010
0100
0010
0001
,
0101
0010
0100
1000
0101
0010
0100
1000
0101
0010
0100
1000
0101
0010
0100
1000
,
1010
0100
0010
0001
1010
0100
0010
0001
1010
0100
0010
0001
1010
0100
0010
0001
,
0001
0010
0100
1000
0001
0010
0100
1000
0001
0010
0100
1000
0001
0010
0100
1000
,
1000
0100
0010
0001
1000
0100
0010
0001
1000
0100
0010
0001
1000
0100
0010
0001
,
0001
0010
0100
1000
0001
0010
0100
1000
0001
0100
0010
1000
0001
0100
0010
1000
,
0001
0100
0010
1000
0001
0100
0010
1000
0001
0100
0010
1000
0001
0100
0010
1000
,
1000
0010
0100
0001
1000
0010
0100
0001
1000
0010
0100
0001
1000
0010
0100
0001
,
0010
1000
0010
0100
0010
1000
0010
0100
,
0001
0000
0000
0000
;
